Videoforum - форум о видео и не только!


Вернуться   Videoforum - форум о видео и не только! > Важная информация > Вопрос-ответ

Важная информация

Вопрос-ответ В этом разделе каждое сообщение состоит из вопроса и ответа на этот вопрос. В темах не предполагается дискуссия, сюда модераторы переносят только корректно сформулированные вопросы и ответы на них, чтобы последние не потерялись в процессе переписки.

Ответ
 
Опции темы
Старый 16.04.2011, 05:42   #1
Mikasantik
Новичок
 
Регистрация: 16.04.2011
Возраст: 50
Сообщений: 1
Сказал(а) спасибо: 0
Поблагодарили 0 раз(а) в 0 сообщениях
Вес репутации: 0
Mikasantik has a spectacular aura about
По умолчанию Windows 2008 Standart. Не воспроизводится файл WMV

Привет, не могу на удалённом сервере запустить файл формата wmv, на серваке ОС Windows 2008 Standart хотел установить кодек WMV3, но он на систему не ставится, пишет что эта система не поддерживается, есть ли решение проблемы? вот что выдаёт KMplayer:
Format : Windows Media
File size : 301 MiB
Duration : 25mn 18s
Overall bit rate mode : Variable
Overall bit rate : 1 661 Kbps
Maximum Overall bit rate : 1 752 Kbps
Encoded date : UTC 2008-05-28 17:44:06.399
SfOriginalFPS : 300000
Video #2
ID : 2
Format : VC-1
Format profile : MP@HL
Codec ID : WMV3
Codec ID/Info : Windows Media Video 9
Codec ID/Hint : WMV3
Description of the codec : Windows Media Video 9 - Professional
Duration : 25mn 18s
Bit rate mode : Variable
Bit rate : 1 638 Kbps
Width : 788 pixels
Height : 576 pixels
Display aspect ratio : 4:3
Frame rate : 30.000 fps
Resolution : 24 bits
Scan type : Progressive
Bits/(Pixel*Frame) : 0.120
Stream size : 297 MiB (99%)
Language : Russian
Audio #1
ID : 1
Format : WMA2
Format profile : L1
Codec ID : 161
Codec ID/Info : Windows Media Audio 2
Description of the codec : Windows Media Audio 9.2 - 96 kbps, 44 kHz, stereo (A/V) 1-pass CBR
Duration : 25mn 18s
Bit rate mode : Constant
Bit rate : 96.0 Kbps
Channel(s) : 2 channels
Sampling rate : 44.1 KHz
Resolution : 16 bits
Stream size : 17.4 MiB (6%)
Language : Russian
Mikasantik вне форума   Ответить с цитированием Вверх
Старый 22.04.2011, 22:10   #2
Moser
Ученик
 
Аватар для Moser
 
Регистрация: 20.04.2011
Возраст: 35
Сообщений: 10
Сказал(а) спасибо: 0
Поблагодарили 0 раз(а) в 0 сообщениях
Вес репутации: 0
Moser has a spectacular aura about
По умолчанию

вы где вин 8 то откопали??
Moser вне форума   Ответить с цитированием Вверх
Старый 23.04.2011, 02:36   #3
aleks_nsk
Модератор
 
Регистрация: 05.07.2010
Возраст: 56
Сообщений: 2,442
Сказал(а) спасибо: 722
Поблагодарили 1,039 раз(а) в 676 сообщениях
Вес репутации: 832
aleks_nsk has a reputation beyond reputealeks_nsk has a reputation beyond reputealeks_nsk has a reputation beyond reputealeks_nsk has a reputation beyond reputealeks_nsk has a reputation beyond reputealeks_nsk has a reputation beyond reputealeks_nsk has a reputation beyond reputealeks_nsk has a reputation beyond repute
По умолчанию

А что вас удивляет? это серверная ОС, это не Win 8
aleks_nsk вне форума   Ответить с цитированием Вверх
Ответ

Опции темы

Ваши права в разделе
Вы не можете создавать новые темы
Вы не можете отвечать в темах
Вы не можете прикреплять вложения
Вы не можете редактировать свои сообщения

BB коды Вкл.
Смайлы Вкл.
[IMG] код Вкл.
HTML код Выкл.

Быстрый переход

Похожие темы
Тема Автор Раздел Ответов Последнее сообщение
Подскажите прогу для соединения файлов MTS, M2TS в один файл. Renegad Общие вопросы по видеомонтажу 5 03.11.2014 11:33
Чем открыть файл с расширением: DVR paulan Кодеки и кодеры, кодирование и конвертация. 13 13.03.2012 12:08
Не полностью воспроизводится фильм vlad3773 Программы DVD авторинга 1 04.04.2011 22:29
Вопрос по экспорту фильма в файл ИринаГар Общие вопросы по видеомонтажу 2 29.11.2010 17:28


Часовой пояс GMT +1, время: 17:11.




Powered by vBulletin® Version 3.8.3
Copyright ©2000 - 2023, Jelsoft Enterprises Ltd. Перевод: zCarot


Рейтинг@Mail.ru